#TITLE:Hi De Hi, Hi De Ho;
#SUBTITLE:;
#ARTIST:Kool & The Gang;
#TITLETRANSLIT:;
#SUBTITLETRANSLIT:;
#ARTISTTRANSLIT:;
#CREDIT:;
#BANNER:;
#BACKGROUND:;
#LYRICSPATH:;
#CDTITLE:;
#MUSIC:Hi De Hi Hi De Ho.mp3;
#MUSICLENGTH:93.126;
#OFFSET:1.680;
#SAMPLESTART:9.345;
#SAMPLELENGTH:12.000;
#SELECTABLE:YES;
#BPMS:0.000=107.900,120.000=108.720,128.000=110.020,140.000=108.800;
#STOPS:;
#BGCHANGES:;
#FIRSTBEAT:4.000;

#LASTBEAT:164.000;

#SONGFILENAME:Songs/EXTRA/HI De Hi Hi De Ho/Hi De Hi Hi De Ho.sm;

#HASMUSIC:1;

#HASBANNER:0;


//---------------dance-single - MANIAC----------------
#NOTES:
     dance-single:
     MANIAC:
     hard:
     7:
     0.365,0.330,0.054,0.000,0.193,233.000,5.000,0.000,0.000,0.000:

0000
0000
0000
0000
,
1000
0000
0010
0000
0100
0000
0010
0000
0001
0000
0010
0100
0000
0000
0000
0000
,
0001
0000
0010
0000
0100
0000
0010
0000
1000
0000
0010
0100
0000
0000
0000
0000
,
0001
0000
1000
0000
0010
0000
0100
0000
0010
0000
1000
0001
0000
0000
0000
0000
,
0001
0000
0010
0000
0001
0000
1000
0100
0000
0000
0000
0000
0000
0000
0000
0000
,
1000
0000
0010
0000
0100
0000
0010
0000
0001
0000
0010
0100
0000
0000
0000
0000
,
0001
0000
0010
0000
0100
0000
0010
0000
1000
0000
0010
0100
0000
0000
0000
0000
,
0001
0000
1000
0000
0010
0000
0100
0000
0010
0000
1000
0001
0000
0000
0000
0000
,
0001
0000
0010
0000
0001
0000
1000
0100
0000
0000
0000
0000
0000
0000
0000
0000
,
1000
0000
0010
0000
0100
0000
0010
0000
0001
0000
0010
0100
0000
0000
0000
0000
,
0001
0000
0010
0000
0100
0000
0010
0000
1000
0000
0010
0100
0000
0000
0000
0000
,
0001
0000
1000
0000
0010
0000
0100
0000
0010
0000
1000
0001
0000
0000
0000
0000
,
0001
0000
0010
0000
0001
0000
1000
0100
0000
0000
0000
0000
0000
0000
0000
0000
,
0010
0001
1000
1000
,
0100
0000
1000
0000
0010
0000
0100
0000
0010
0000
0100
0001
0000
0000
0000
0000
,
0010
0100
0001
0010
,
0100
0000
0001
0000
0010
0000
0100
0010
0000
0000
0000
0000
0000
0000
0000
0000
,
0010
0001
1000
1000
,
0100
0000
1000
0000
0010
0000
0100
0000
0010
0000
0100
0001
0000
0000
0000
0000
,
0010
0100
0001
0010
,
0100
0000
0001
0000
0010
0000
0100
0010
0000
0000
0000
0000
0000
0000
0000
0000
,
0000
0000
1000
0000
0000
0100
0000
0000
0011
0000
0000
0000
0000
0000
0000
0000
,
0010
0000
0001
0000
0100
0000
1000
0000
0100
0000
0010
0100
0000
0000
0000
0000
,
0000
0000
0001
0000
0000
0100
0000
0000
1010
0000
0000
0000
0000
0000
0000
0000
,
0010
0000
0001
0000
0010
0000
0100
1000
0000
0000
0000
0000
0000
0000
0000
0000
,
0000
0000
1000
0000
0000
0100
0000
0000
0011
0000
0000
0000
0000
0000
0000
0000
,
0010
0000
0001
0000
0100
0000
1000
0000
0100
0000
0010
0100
0000
0000
0000
0000
,
0000
0000
0001
0000
0000
0100
0000
0000
1010
0000
0000
0000
0000
0000
0000
0000
,
0010
0000
0001
0000
0010
0000
0100
1000
0000
0000
0000
0000
0000
0000
0000
0000
,
1000
0000
0010
0000
0100
0000
0010
0000
0001
0000
0010
0100
0000
0000
0000
0000
,
0001
0000
0010
0000
0100
0000
0010
0000
1000
0000
0010
0100
0000
0000
0000
0000
,
0001
0000
1000
0000
0010
0000
0100
0000
0010
0000
1000
0001
0000
0000
0000
0000
,
0001
0000
0010
0000
0001
0000
1000
0100
0000
0000
0000
0000
0000
0000
0000
0000
,
1000
0000
0010
0000
0100
0000
0010
0000
0001
0000
0010
0100
0000
0000
0000
0000
,
0001
0000
0010
0000
0100
0000
0010
0000
1000
0000
0010
0100
0000
0000
0000
0000
,
0001
0000
1000
0000
0010
0000
0100
0000
0010
0000
1000
0001
0000
0000
0000
0000
,
0001
0000
0010
0000
0001
0000
1000
0100
0000
0000
0000
0000
0000
0000
0000
0000
,
1000
0000
0010
0000
0100
0000
0010
0000
0001
0000
0010
0100
0000
0000
0000
0000
,
0001
0000
0010
0000
0100
0000
0010
0000
1000
0000
0010
0100
0000
0000
0000
0000
,
0001
0000
1000
0000
0010
0000
0100
0000
0010
0000
1000
0001
0000
0000
0000
0000
,
0001
0000
0010
0000
0001
0000
1000
0100
0000
0000
0000
0000
0000
0000
0000
0000
,
1010
0000
0000
0000;

//---------------dance-single - ANOTHER----------------
#NOTES:
     dance-single:
     ANOTHER:
     medium:
     4:
     0.219,0.242,0.032,0.021,0.000,138.000,3.000,2.000,0.000,0.000:

0000
0000
0000
0000
,
0000
0000
0000
0000
,
1000
0001
0010
0001
,
1000
0000
0001
0000
,
0100
0000
0010
0100
0010
0000
0000
0000
,
0001
1000
0100
0000
,
0010
1000
0001
0010
,
0100
0001
0001
0000
,
1000
0000
0000
0000
0010
0000
0100
0001
,
0010
0100
1000
0000
,
0001
0000
1000
0010
,
0100
0001
0100
0000
,
1000
0000
0001
0010
0001
0000
0000
0000
,
2000
0000
0100
0010
,
0001
0000
0100
0000
0010
0010
0010
3000
,
0002
0010
1000
0100
,
0100
0000
0010
0000
0010
0000
0010
0010
,
0013
1000
0100
0010
,
0000
1000
0100
0010
,
0000
0001
0100
0010
,
0000
0001
0100
0010
,
0000
1000
0001
0000
,
0000
0001
0010
0000
,
0000
0100
1000
0010
,
0000
0010
0010
0000
,
0000
0001
0100
0010
,
0000
1000
0010
0100
,
0000
0001
0010
0000
,
1000
0000
0010
0000
0100
0001
0010
0001
,
1000
1000
1000
1000
,
0001
0100
0010
1000
,
0001
0001
0001
0001
,
0100
0010
0001
0000
,
0100
0010
1000
0100
,
0000
0000
0010
0000
0001
1000
0010
0000
,
0100
0010
0001
0000
,
0100
0000
1000
0010
1000
0000
0000
0000
,
0001
0100
0010
1000
,
0001
0000
0100
0010
1000
0100
0010
0000
,
0001
0100
0010
0000
,
0101
0001
1001
0001
,
0101
0000
0000
0000;

//---------------dance-single - BASIC----------------
#NOTES:
     dance-single:
     BASIC:
     easy:
     3:
     0.135,0.198,0.161,0.000,0.000,73.000,15.000,0.000,0.000,0.000:

0000
0000
0000
0000
,
0001
0000
0000
0000
,
0100
0010
0100
0000
,
1000
0000
0000
0000
,
0010
0100
0010
0000
,
0001
0001
0001
0000
,
1000
0000
0000
0000
,
0100
0100
0100
0000
,
0010
0000
0000
0000
,
1000
1000
1000
0000
,
0001
0000
0000
0000
,
0010
0010
0010
0000
,
0100
0000
0000
0000
,
1000
0000
0001
0000
,
0010
0000
0000
0000
,
0001
0000
1000
0000
,
0010
0000
0000
0000
,
0100
0100
0100
0000
,
0000
0000
0000
0000
,
0010
0010
0010
0000
,
0000
0000
0000
0000
,
0001
1000
0001
0000
,
0001
1000
0001
0000
,
1000
0001
1000
0000
,
1000
0001
1000
0000
,
0010
0100
0010
0000
,
0100
0010
0100
0100
,
0010
0100
0010
0000
,
1001
0000
1001
0000
,
1001
0000
0000
0000
,
1010
0000
0000
0000
,
0101
0000
0000
0000
,
1001
0000
0000
0000
,
0011
0000
0000
0000
,
1100
0000
0000
0000
,
1001
0000
0000
0000
,
1010
0000
0000
0000
,
0101
0000
0000
0000
,
0011
0000
0000
0000
,
1010
0000
0000
0000
,
1100
0000
0000
0000
,
0110
0000
0000
0000;
